Cooking by Ingredient | Suzie Frances Garton | Watch movie

iDATA

Register | Lost password ?
 
13 Sep 2017

The Avengers Age of Ultron (2015) 3D H-SBS 1080p

Category: Movies
 
iDATA Free Downloads
The Avengers Age of Ultron (2015) 3D H-SBS 1080p
 

The Avengers Age of Ultron (2015) 3D H-SBS 1080p

Original Title: The Avengers: Age of Ultron (The Avengers 2)
Year: 2015
Duration: 141 min.
Country: United States
Director: Joss Whedon
Joss Whedon (Comic: Stan Lee, Jack Kirby)
Music: Brian Tyler
Photography: Ben Davis
Cast: Robert Downey Jr., Chris Evans, Chris Hemsworth, Scarlett Johansson, Jeremy Renner, Mark Ruffalo, Alexis Denisof, James Spader, Aaron Johnson, Paul Bettany, Elizabeth Olsen, Thomas Kretschmann, Josh Brolin, Samuel L. Jackson, Hayley Atwell , Don Cheadle, Claudia Kim, Andy Serkis, Idris Elba, Anthony Mackie, Stan Lee
Studio: Marvel Studios
Fantasy genre. Action. Science fiction. Adventure | Superheros. Comic. Marvel Comics. Sequel. 3-D
Synopsis: When Tony Stark tries to revive a disused program whose goal is to keep the peace, things start to twist and Earth's most powerful heroes, including Iron Man, Captain America, Thor, The Incredible Hulk, Black Widow and Eye of Halcon, will have to face the final test when the destiny of the planet is put in game. When the villain Ultron emerges, it will correspond to The Avengers to stop their terrible plans, which together with uncomfortable alliances will lead to an unexpected action that will pave the way for an epic and unique adventure
http://www.imdb.com/title/tt2395427/
Trailer
http://youtu.be/uLmntu8OH-I



General
Format : Matroska
Format version : Version 4 / Version 2
File size : 12.2 GiB
Duration : 2h 21mn
Overall bit rate : 12.3 Mbps
Encoded date : UTC 2015-10-01 21:08:25
Writing application : mkvmerge v7.1.0 (Good Love) 64bit built on Jul 27 2014 13:06:55
Writing library : libebml v1.3.0 + libmatroska v1.4.1
Video
ID : 1
Format : AVC
Format/Info : Advanced Video Codec
Format profile : [email protected]
Format settings, CABAC : Yes
Format settings, ReFrames : 5 frames
Codec ID : V_MPEG4/ISO/AVC
Duration : 2h 21mn
Bit rate : 9 563 Kbps
Width : 1 920 pixels
Height : 808 pixels
Display aspect ratio : 2.40:1
Frame rate mode : Constant
Frame rate : 23.976 fps
Color space : YUV
Chroma subsampling : 4:2:0
Bit depth : 8 bits
Scan type : Progressive
Bits/(Pixel*Frame) : 0.257
Stream size : 9.19 GiB (75%)
Writing library : x264 core 148 r2597 e86f3a1
Language : English
Default : Yes
Forced : No
Audio #1
ID : 2
Format : AC-3
Format/Info : Audio Coding 3
Mode extension : CM (complete main)
Format settings, Endianness : Big
Codec ID : A_AC3
Duration : 2h 21mn
Bit rate mode : Constant
Bit rate : 640 Kbps
Channel(s) : 6 channels
Channel positions : Front: L C R, Side: L R, LFE
Sampling rate : 48.0 KHz
Bit depth : 16 bits
Compression mode : Lossy
Stream size : 647 MiB (5%)
Title :Ac3 5.1 [BluRay]
Language : Spanish
Default : Yes
Forced : No
Audio #2
ID : 3
Format : AC-3
Format/Info : Audio Coding 3
Mode extension : CM (complete main)
Format settings, Endianness : Big
Codec ID : A_AC3
Duration : 2h 21mn
Bit rate mode : Constant
Bit rate : 640 Kbps
Channel(s) : 6 channels
Channel positions : Front: L C R, Side: L R, LFE
Sampling rate : 48.0 KHz
Bit depth : 16 bits
Compression mode : Lossy
Stream size : 647 MiB (5%)
Title : AC3 5.1
Language : English
Default : No
Forced : No
Audio #3
ID : 4
Format : DTS
Format/Info : Digital Theater Systems
Mode : 16
Format settings, Endianness : Big
Codec ID : A_DTS
Duration : 2h 21mn
Bit rate mode : Constant
Bit rate : 1 509 Kbps
Channel(s) : 6 channels
Channel positions : Front: L C R, Side: L R, LFE
Sampling rate : 48.0 KHz
Bit depth : 24 bits
Compression mode : Lossy
Stream size : 1.49 GiB (12%)
Title : DTS 5.1
Language : English
Default : No
Forced : No
Text
ID : 5
Format : UTF-8
Codec ID : S_TEXT/UTF8
Codec ID/Info : UTF-8 Plain Text
Language : Spanish
Default : No
Forced : No


The Avengers Age of Ultron (2015) 3D H-SBS 1080p
The Avengers Age of Ultron (2015) 3D H-SBS 1080p

The Avengers Age of Ultron (2015) 3D H-SBS 1080p



 
iDATA Free Downloads
The Avengers Age of Ultron (2015) 3D H-SBS 1080p

iDATA Free DownloadsThe Avengers Age of Ultron (2015) 3D H-SBS 1080p



The Avengers Age of Ultron (2015) 3D H-SBS 1080p Full Download

The Avengers Age of Ultron (2015) 3D H-SBS 1080p is available on a new fast direct download service with over 2,210,000 Files to choose from.Download anything with more then 1000+ Kb/s downloading speed. Go ahead download now and enjoy the speed !

 
Dear visitor, you went to website as unregistered user.
We encourage you to Register or Login to website under your name.